Человек будущего (Сезон 2) / Future Man (2019) WEBDL 1080p
Релиз группы NewStudio.TV



Сериал: Человек будущего / Future Man
Сезон: 2, Серия: 1-13

Информация о сериале
Год выхода: 2019
Жанр: Фантастика, комедия
Режиссер: Ниша Ганатра
В ролях: Джош Хатчерсон, Дерек Уилсон, Эд Бегли мл., Дрю Джеймс, Роберт Крэйгхед

О фильме:
Главный герой всё ещё живёт с родителями и работает уборщиком в исследовательской лаборатории, специализирующейся на поисках лекарства от герпеса. Единственное, в чем преуспевает герой, — это видеоигра Biotic Wars. Когда Джош проходит последний уровень, ему наносят визит персонажи Biotic Wars, утверждающие, что игра была всего лишь тренингом и теперь герой избран для того, чтобы совершить путешествие в прошлое и помочь им спасти мир. Готов ли Джош к этому? Конечно, нет.

Над релизом работали:
Озвучка: Многоголосое профессиональное закадровое озвучание (NewStudio)
Перевод: Юлия Мейер, Марина Черепанова, Дарья Савельева, Дарья Зеленова, Андрей Савельев, Агата Клинцова
Редактор: Александра Цернант

IMDb

TV.com

При поддержке:




Выпущено: США, HULU
Продолжительность: ~00:30:00

Файл
Формат: MKV
Качество: WEBDL 1080p
Видео: ~5000 kb/s, 1920x1080
Звук: Русский / Оригинал: AC3, 192 kb/s

Ориентировочный график появления новых серий на сайте:
Внимание! График ориентировочный, выход новой серии может быть перенесён из-за непредвиденных обстоятельств. График выхода серий в оригинале можно посмотреть на imdb или tv.com
Ссылки присутствуют в описании.
Релиз группы

Future.Man.s02.WEBDL.1080p.NewStudio.TV.torrent  
 GOLD TORRENT! DOWNLOAD TRAFFIC DOES NOT CONSIDER! 
Torrent: Registered [ 2019-04-20 11:01 ] 42 KB
Status: not checked
Size: 16.22 GB
sk777

Longevity: 1 year 10 months

Posts: 138

20-Apr-2019 12:02 (after 1 hour)
Лучше бы вообще не выкладывали, чем такое убожество.
Constantine

Longevity: 3 years 7 months

Posts: 10

20-Apr-2019 12:42 (after 39 minutes)
Лучше бы вообще не выкладывали, чем такое убожество.
Опять видео фризит и тонна рекламы?
DareDevil

Longevity: 4 years 5 months

Posts: 18

20-Apr-2019 13:11 (after 29 minutes)
Лучше бы вообще не выкладывали, чем такое убожество.
Опять видео фризит и тонна рекламы?
Да им походу уже плевать на качество) Просто забей
sk777

Longevity: 1 year 10 months

Posts: 138

20-Apr-2019 13:16 (after 5 minutes)
Лучше бы вообще не выкладывали, чем такое убожество.
Опять видео фризит и тонна рекламы?
Да им походу уже плевать на качество) Просто забей
Да я уже) Сейчас как раз качаю 4 сериала с других мест. А тут 2 серии из сезона рандомно чекнул - теперь картинка по диагонали блять :-) Это типа свой стиль у них)
baracuda76

Longevity: 6 years 7 months

Posts: 170

20-Apr-2019 14:18 (after 1 hour 1 minute)
13 серия скриншоты (〇_o) видео нормальное в 13 серии
Оригинал отсутствует
https://b.radikal.ru/b31/1904/58/2e6c1bc97187.png
https://c.radikal.ru/c42/1904/66/9e9b339bf719.png
https://c.radikal.ru/c43/1904/c6/6e418840de09.png
https://d.radikal.ru/d09/1904/e0/1dd367ca6cab.png
https://c.radikal.ru/c04/1904/ed/e821fd6eb515.png
Инфо файла
General
Unique ID : 136744311499847233616317312626756498916 (0x66DFFF15A851A947AC7A359D2FD135E4)
Complete name : G:\FILMS\Future.Man.s02.WEBDL.1080p.NewStudio.TV\Future.Man.s02e13.WEBDL.1080p.NewStudio.TV.mkv
Format : Matroska
Format version : Version 4
File size : 1.31 GiB
Duration : 25 min 43 s
Overall bit rate mode : Variable
Overall bit rate : 7 293 kb/s
Encoded date : UTC 2019-04-19 21:25:46
Writing application : TMPGEnc Video Mastering Works 6 Trial with Movie Plug-in Version. 6.2.10.37
Writing library : TMPGEnc Video Mastering Works 6 Trial with Movie Plug-in Version. 6.2.10.37

Video
ID : 2
Format : AVC
Format/Info : Advanced Video Codec
Format profile : High@L4.1
Format settings : CABAC / 5 Ref Frames
Format settings, CABAC : Yes
Format settings, ReFrames : 5 frames
Codec ID : V_MPEG4/ISO/AVC
Duration : 25 min 43 s
Bit rate mode : Variable
Bit rate : 7 000 kb/s
Maximum bit rate : 39.6 Mb/s
Width : 1 920 pixels
Height : 800 pixels
Display aspect ratio : 2.40:1
Frame rate mode : Constant
Frame rate : 23.976 (24000/1001) FPS
Standard : Component
Color space : YUV
Chroma subsampling : 4:2:0
Bit depth : 8 bits
Scan type : Progressive
Bits/(Pixel*Frame) : 0.190
Stream size : 1.20 GiB (92%)
Writing library : x264 core 148
Encoding settings : cabac=1 / ref=5 / deblock=1:0:0 / analyse=0x3:0x113 / me=hex / subme=7 / psy=1 / psy_rd=1.00:0.00 / mixed_ref=1 / me_range=16 / chroma_me=1 / trellis=1 / 8x8dct=1 / cqm=1 / deadzone=21,11 / fast_pskip=1 / chroma_qp_offset=-2 / threads=12 / lookahead_threads=2 / sliced_threads=0 / slices=1 / nr=0 / decimate=1 / interlaced=0 / minigop=0 / stitchable=1 / constrained_intra=0 / bframes=3 / b_pyramid=0 / b_adapt=1 / b_bias=0 / direct=1 / weightb=1 / open_gop=1 / weightp=2 / keyint=250 / keyint_min=23 / scenecut=40 / intra_refresh=0 / rc_lookahead=40 / rc=abr / mbtree=1 / bitrate=7000 / ratetol=1.0 / qcomp=0.60 / qpmin=3 / qpmax=69 / qpstep=4 / vbv_maxrate=39600 / vbv_bufsize=39600 / nal_hrd=vbr / filler=0 / ip_ratio=1.40 / aq=1:1.00
Default : Yes
Forced : No
Color range : Limited
Color primaries : BT.709
Transfer characteristics : BT.709
Matrix coefficients : BT.709

Audio
ID : 1
Format : AC-3
Format/Info : Audio Coding 3
Commercial name : Dolby Digital
Codec ID : A_AC3
Duration : 25 min 43 s
Bit rate mode : Constant
Bit rate : 448 kb/s
Channel(s) : 6 channels
Channel layout : L R C LFE Ls Rs
Sampling rate : 48.0 kHz
Frame rate : 31.250 FPS (1536 SPF)
Bit depth : 16 bits
Compression mode : Lossy
Stream size : 82.4 MiB (6%)
Service kind : Complete Main
Default : Yes
Forced : No
ArcherV

Longevity: 4 years 1 month

Posts: 162

20-Apr-2019 14:31 (after 13 minutes)
Билять...
Emotional

Longevity: 7 years 3 months

Posts: 822

Location: Southern Pines, NC

20-Apr-2019 14:58 (after 26 minutes)
baracuda76, скрины ужасно хороши )) Реклама одной конторы на фоне другой.
Constantine

Longevity: 3 years 7 months

Posts: 10

20-Apr-2019 17:56 (after 2 hours 58 minutes)
мдее. Первые 5 серий, которые были переведены ещё до всей этой фигни с 1хбетом норм, а вот начиная с 6й подтормаживания и электронные голоса. Класс. Не смотрел от лостов и ждал озвучку от вас, чтобы получить вот такое. С кайфом. Спасибо.
lemir1

Longevity: 6 years 8 months

Posts: 2

20-Apr-2019 18:29 (after 33 minutes)
Сначала казалось, что это у них временно, ну всякое бывает, денег не было. Теперь понятно, что класть они хотели на зрителей, думают мол и так хавать будут. НЕТ, ребят, не будем! Мало того, что выкладываете с жутким опозданием все, так еще захуярили все рекламой. Уверенно перешел на других переводчиков, тут ловить больше нечего. Одумайтесь, пока не просрали остатки аудитории!
Vovan666

Longevity: 6 years 1 month

Posts: 5

20-Apr-2019 22:26 (after 3 hours)
Ни чё вы не понимаете. один-хрен-бет это подконтрольная роскомнадзору организация, и такой метод борьбы с пиратством куда эффективнее блокировок. Скоро и до софта доберутся и во время установки винды будут бить барабаны, а на рабочем столе будет логотип конторы.
evilmonkey

Longevity: 4 years 11 months

Posts: 24

20-Apr-2019 23:35 (after 1 hour 9 minutes)
спасибо НьюСтудио!,ждал целый сезон от Вас,но читая выше комментарии придется перейти на другую озвучку
PoroR

Longevity: 4 years 10 months

Posts: 1

21-Apr-2019 11:48 (after 12 hours)
С рекламой я еще согласен, понятно что как то нужно зарабатывать, но электронные голоса и фризы это жестоко.
На какую озвучку посоветуете перейти ?
evilmonkey

Longevity: 4 years 11 months

Posts: 24

21-Apr-2019 19:19 (after 7 hours)
кстати фризы заметил в другом сериале от НС-Хорошие девочки(мб в 1080 только)
evilmonkey

Longevity: 4 years 11 months

Posts: 24

21-Apr-2019 19:21 (after 1 minute)
С рекламой я еще согласен, понятно что как то нужно зарабатывать, но электронные голоса и фризы это жестоко.
На какую озвучку посоветуете перейти ?
лично я буду смотреть от Лостов,но выбор за Вами
Display posts from previous

You cannot post new topics in this forum
You cannot reply to topics in this forum
You cannot edit your posts in this forum
You cannot delete your posts in this forum
You cannot vote in polls in this forum
You cannot attach files in this forum
You can download files in this forum
К
П
С